Мосул / Mosul (2019) WEB-DL 1080p | P скачать бесплатно торрент

Фильмы высокого разрешения в формате HD
Торрент [ Статус: Проверен ] Скачать Сидеров Личеров Размер
Mosul.2019.NF.WEB-DL.1080p.mkv.torrent
170 31 3.8 ГБ
Аватара пользователя
admin
Администратор
Администратор
Сообщения: 11610
Зарегистрирован: 13 дек 2013, 01:15
Благодарил (а): 7 раз
Контактная информация:

Мосул / Mosul (2019) WEB-DL 1080p | P

Сообщение admin » 20 апр 2021, 17:08

Информация о фильме
Название: Мосул
Оригинальное название: Mosul
Год выхода: 2020
Жанр: Боевик, военный, драма
Режиссер: Мэттью Майкл Карнахан
В ролях: Вильям Эль Гарди, Хаят Камилла, Сухейл Алдаббач, Таер аш-Шайи, Адам Бесса, Исхак Элиас, Бен Эффан, Мохимен Махбуба, Кутайба Абдельхак, Аббас Абдулгани, Мохамед Аттугуй, Ахмед Ганем, Махди Чалкхауи

О фильме:
Война между ИГИЛ и жителями Мосула, когда-то второго по величине города Ирака, подходит к концу. ИГИЛ, известный в этой части света под названием «ДАИШ», отступает после долгих лет оккупации, во время которой они насиловали, пытали и убивали с жестокостью варваров средневековья. Единственное подразделение, которое сражалось с ДАИШ без отдыха и отступлений — Команда спецназа Ниневии, элитное подразделение полиции, сформированное из жителей города.


Изображение Изображение

Страна: США
Студия: Conde Nast Entertainment, Russo Brothers
Продолжительность: 01:42:32
Перевод: Профессиональный многоголосый | HDRezka Studio


Файл
Кодек: AVC
Качество: WEB-DL 1080p
Видео: MPEG-4 AVC, 3835 Kбит/с, 1920x1080, 24.000 кадр/с
Аудио #1: Русский (АС3, 6 ch, 448 Кбит/с, 48.0 KHz) Профессиональный (многоголосый, закадровый) HDRezka Studio
Аудио #2: Украинский (АС3, 6 ch, 384 Кбит/с, 48.0 KHz) Профессиональный (многоголосый, закадровый) HDRezka Studio
Аудио #3: Арабский (E-АС3, 6 ch, 640 Кбит/с, 48.0 KHz)
Субтитры: Русские (forced, full), украинские (forced), английские, французские, немецкие, арабские, китайские | Нетфликс
► Без Рекламы!



https://youtu.be/Z9bw8MGkB-A



Источник: Mosul.2019.1080p.WEB.H264-STRONTiUM
General
Unique ID : 94362576584839038941649263998211420273 (0x46FD923956D924795C9EA0B7D82B7071)
Complete name : Mosul.2019.NF.WEB-DL.1080p.mkv
Format : Matroska
Format version : Version 4
File size : 3.80 GiB
Duration : 1 h 42 min
Overall bit rate mode : Variable
Overall bit rate : 5 309 kb/s
Encoded date : UTC 2020-12-01 03:58:38
Writing application : mkvmerge v20.0.0 ('I Am The Sun') 64-bit
Writing library : libebml v1.3.5 + libmatroska v1.4.8

Video
ID : 1
Format : AVC
Format/Info : Advanced Video Codec
Format profile : Main@L4
Format settings : CABAC / 3 Ref Frames
Format settings, CABAC : Yes
Format settings, Reference fra : 3 frames
Codec ID : V_MPEG4/ISO/AVC
Duration : 1 h 42 min
Bit rate mode : Variable
Bit rate : 3 835 kb/s
Nominal bit rate : 4 870 kb/s
Maximum bit rate : 7 305 kb/s
Width : 1 920 pixels
Height : 1 080 pixels
Display aspect ratio : 16:9
Frame rate mode : Constant
Frame rate : 24.000 FPS
Color space : YUV
Chroma subsampling : 4:2:0
Bit depth : 8 bits
Scan type : Progressive
Bits/(Pixel*Frame) : 0.077
Stream size : 2.75 GiB (72%)
Title : STRONTiUM
Writing library : x264 core 148 r2722 1b0121b
Encoding settings : cabac=1 / ref=3 / deblock=1:0:0 / analyse=0x1:0x111 / me=umh / subme=10 / psy=1 / psy_rd=1.00:0.00 / mixed_ref=1 / me_range=24 / chroma_me=1 / trellis=2 / 8x8dct=0 / cqm=0 / deadzone=21,11 / fast_pskip=1 / chroma_qp_offset=-2 / threads=6 / lookahead_threads=1 / sliced_threads=0 / nr=0 / decimate=1 / interlaced=0 / bluray_compat=0 / stitchable=1 / constrained_intra=0 / bframes=2 / b_pyramid=0 / b_adapt=2 / b_bias=0 / direct=3 / weightb=1 / open_gop=0 / weightp=2 / keyint=250 / keyint_min=24 / scenecut=0 / intra_refresh=0 / rc_lookahead=48 / rc=2pass / mbtree=1 / bitrate=4870 / ratetol=1.0 / qcomp=0.50 / qpmin=6 / qpmax=51 / qpstep=4 / cplxblur=20.0 / qblur=0.5 / vbv_maxrate=7305 / vbv_bufsize=9740 / nal_hrd=vbr / filler=0 / ip_ratio=1.40 / aq=1:1.00
Language : Arabic
Default : Yes
Forced : No

Audio #1
ID : 2
Format : AC-3
Format/Info : Audio Coding 3
Commercial name : Dolby Digital
Codec ID : A_AC3
Duration : 1 h 42 min
Bit rate mode : Constant
Bit rate : 448 kb/s
Channel(s) : 6 channels
Channel layout : L R C LFE Ls Rs
Sampling rate : 48.0 kHz
Frame rate : 31.250 FPS (1536 SPF)
Compression mode : Lossy
Stream size : 329 MiB (8%)
Title : MVO HDRezka Studio
Language : Russian
Service kind : Complete Main
Default : Yes
Forced : No

Audio #2
ID : 3
Format : AC-3
Format/Info : Audio Coding 3
Commercial name : Dolby Digital
Codec ID : A_AC3
Duration : 1 h 42 min
Bit rate mode : Constant
Bit rate : 384 kb/s
Channel(s) : 6 channels
Channel layout : L R C LFE Ls Rs
Sampling rate : 48.0 kHz
Frame rate : 31.250 FPS (1536 SPF)
Compression mode : Lossy
Stream size : 282 MiB (7%)
Title : MVO HDRezka Studio
Language : Ukrainian
Service kind : Complete Main
Default : No
Forced : No

Audio #3
ID : 4
Format : E-AC-3
Format/Info : Enhanced AC-3
Commercial name : Dolby Digital Plus
Codec ID : A_EAC3
Duration : 1 h 42 min
Bit rate mode : Constant
Bit rate : 640 kb/s
Channel(s) : 6 channels
Channel layout : L R C LFE Ls Rs
Sampling rate : 48.0 kHz
Frame rate : 31.250 FPS (1536 SPF)
Compression mode : Lossy
Stream size : 469 MiB (12%)
Language : Arabic
Service kind : Complete Main
Default : No
Forced : No

Text #1
ID : 5
Format : UTF-8
Codec ID : S_TEXT/UTF8
Codec ID/Info : UTF-8 Plain Text
Duration : 1 h 32 min
Bit rate : 3 b/s
Count of elements : 28
Stream size : 2.59 KiB (0%)
Title : forced
Language : Russian
Default : Yes
Forced : No

Text #2
ID : 6
Format : UTF-8
Codec ID : S_TEXT/UTF8
Codec ID/Info : UTF-8 Plain Text
Duration : 1 h 32 min
Bit rate : 2 b/s
Count of elements : 11
Stream size : 1.40 KiB (0%)
Title : forced
Language : Ukrainian
Default : No
Forced : No

Text #3
ID : 7
Format : UTF-8
Codec ID : S_TEXT/UTF8
Codec ID/Info : UTF-8 Plain Text
Duration : 1 h 40 min
Bit rate : 56 b/s
Count of elements : 942
Stream size : 41.6 KiB (0%)
Language : Russian
Default : No
Forced : No

Text #4
ID : 8
Format : UTF-8
Codec ID : S_TEXT/UTF8
Codec ID/Info : UTF-8 Plain Text
Duration : 1 h 29 min
Bit rate : 33 b/s
Count of elements : 870
Stream size : 22.2 KiB (0%)
Language : English
Default : No
Forced : No

Text #5
ID : 9
Format : UTF-8
Codec ID : S_TEXT/UTF8
Codec ID/Info : UTF-8 Plain Text
Duration : 1 h 41 min
Bit rate : 34 b/s
Count of elements : 996
Stream size : 25.5 KiB (0%)
Language : French
Default : No
Forced : No

Text #6
ID : 10
Format : UTF-8
Codec ID : S_TEXT/UTF8
Codec ID/Info : UTF-8 Plain Text
Duration : 1 h 41 min
Bit rate : 34 b/s
Count of elements : 937
Stream size : 25.6 KiB (0%)
Language : German
Default : No
Forced : No

Text #7
ID : 11
Format : UTF-8
Codec ID : S_TEXT/UTF8
Codec ID/Info : UTF-8 Plain Text
Duration : 1 h 32 min
Bit rate : 86 b/s
Count of elements : 1141
Stream size : 58.7 KiB (0%)
Title : SDH
Language : Arabic
Default : No
Forced : No

Text #8
ID : 12
Format : UTF-8
Codec ID : S_TEXT/UTF8
Codec ID/Info : UTF-8 Plain Text
Duration : 1 h 41 min
Bit rate : 42 b/s
Count of elements : 1021
Stream size : 31.8 KiB (0%)
Title : Simplified
Language : Chinese
Default : No
Forced : No
Изображение Изображение Изображение Изображение Изображение Изображение Изображение Изображение Изображение Изображение

Как скачать!

  • Похожие темы
    Ответы
    Просмотры
    Последнее сообщение

Вернуться в «Фильмы HD»

Кто сейчас на конференции

Сейчас этот форум просматривают: нет зарегистрированных пользователей и 3 гостя