Земля кочевников / Nomadland (2020) BDRip 1080p | HDRezka Studio скачать бесплатно торрент

Фильмы высокого разрешения в формате HD
Торрент [ Статус: Проверен ] Скачать Сидеров Личеров Размер
Nomadland.2020.BDRip.1080p.x264.mkv.torrent
476 42 13.32 ГБ
Аватара пользователя
admin
Администратор
Администратор
Сообщения: 11609
Зарегистрирован: 13 дек 2013, 01:15
Благодарил (а): 7 раз
Контактная информация:

Земля кочевников / Nomadland (2020) BDRip 1080p | HDRezka Studio

Сообщение admin » 20 апр 2021, 17:12

Год выхода: 2020
Жанр: Драма
Режиссер: Хлоя Чжао
В ролях: Фрэнсис МакДорманд, Дэвид Стрэтэйрн, Гэй ДеФорест, Патриша Грайр, Линда Мэй, Анджела Рэйс, Карл Р. Хьюз, Дуглас Дж. Соул, Райан Аквино, Тереза Бьюкэнэн, Кариэ Линн Макдермотт Уайлдер, Брэнди Уилбер, Макензи Этчеверри, Аннетт Уэбб, Боб Уэллс

О фильме:
В 2011 году крупная корпорация закрывает шахту, расположенную в маленьком городе в штате Невада, что приводит к массовому оттоку местных жителей из региона. Когда 60-летняя Ферн лишается постоянной работы, она решает переоборудовать личный фургон в дом на колесах, чтобы вести кочевой образ жизни, путешествуя по США и зарабатывая на сезонной подработке. В своем спонтанном приключении Ферн встречает новых друзей, а также учится навыкам выживания и самостоятельности на дороге, постепенно постигая премудрости кочевой жизни в современном мире...


Изображение Изображение

Страна: США, Германия
Студия: Cor Cordium Productions, Hear/Say Productions, Highwayman Films
Продолжительность: 01:47:36
Перевод: Профессиональный многоголосый | HDRezka Studio

Файл
Кодек: x.264
Качество: BDRip 1080p | Nomadland.2020.1080p.BluRay.x264.DTS-MT
Видео: MPEG-4 AVC, 16.6 Mбит/с, 1920x804, 23.976 кадр/с
Аудио #1: Русский (АС3, 6 ch, 448 Кбит/с, 48.0 KHz) Профессиональный (многоголосый, закадровый) HDRezka Studio
Аудио #2: Английский (АС3, 6 ch, 640 Кбит/с, 48.0 KHz)
Субтитры: Русские (Forced (HDRezka), Full (Focs), английские
► Без Рекламы!



https://youtu.be/6sxCFZ8_d84



Источник: Nomadland.2020.1080p.BluRay.x264.DTS-MT
General
Unique ID : 192946399176557000648443169593786042675 (0x91281FF1D11D6A138AB97D1A06FF0933)
Complete name : Nomadland.2020.BDRip.1080p.x264.mkv
Format : Matroska
Format version : Version 4
File size : 13.3 GiB
Duration : 1 h 47 min
Overall bit rate : 17.7 Mb/s
Encoded date : UTC 2021-04-20 12:38:10
Writing application : mkvmerge v7.1.0 ('Good Love') 64bit built on Jul 27 2014 13:06:55
Writing library : libebml v1.3.0 + libmatroska v1.4.1

Video
ID : 1
Format : AVC
Format/Info : Advanced Video Codec
Format profile : High@L4.1
Format settings : CABAC / 5 Ref Frames
Format settings, CABAC : Yes
Format settings, Reference fra : 5 frames
Codec ID : V_MPEG4/ISO/AVC
Duration : 1 h 47 min
Bit rate : 16.6 Mb/s
Width : 1 920 pixels
Height : 804 pixels
Display aspect ratio : 2.40:1
Frame rate mode : Constant
Frame rate : 23.976 (24000/1001) FPS
Color space : YUV
Chroma subsampling : 4:2:0
Bit depth : 8 bits
Scan type : Progressive
Bits/(Pixel*Frame) : 0.449
Stream size : 12.5 GiB (94%)
Writing library : x264 core 157 r2938 2b00a84 TnP@MTeam Mod
Encoding settings : cabac=1 / ref=5 / deblock=1:-3:-3 / analyse=0x3:0x133 / me=umh / subme=10 / psy=1 / psy_rd=1.05:0.00 / mixed_ref=1 / me_range=32 / chroma_me=1 / trellis=2 / 8x8dct=1 / cqm=0 / deadzone=21,11 / fast_pskip=0 / chroma_qp_offset=-2 / threads=12 / lookahead_threads=2 / sliced_threads=0 / nr=0 / decimate=0 / interlaced=0 / bluray_compat=0 / constrained_intra=0 / bframes=8 / b_pyramid=2 / b_adapt=2 / b_bias=0 / direct=3 / weightb=1 / open_gop=0 / weightp=2 / keyint=250 / keyint_min=24 / scenecut=40 / intra_refresh=0 / rc_lookahead=250 / rc=crf / mbtree=0 / crf=16.8 / qcomp=0.60 / qpmin=0 / qpmax=69 / qpstep=4 / vbv_maxrate=62500 / vbv_bufsize=78125 / crf_max=0.0 / nal_hrd=none / filler=0 / ip_ratio=1.30 / pb_ratio=1.20 / aq=3:0.80
Language : English
Default : Yes
Forced : No
Color range : Limited
Color primaries : BT.709
Matrix coefficients : BT.709

Audio #1
ID : 2
Format : AC-3
Format/Info : Audio Coding 3
Commercial name : Dolby Digital
Codec ID : A_AC3
Duration : 1 h 47 min
Bit rate mode : Constant
Bit rate : 448 kb/s
Channel(s) : 6 channels
Channel layout : L R C LFE Ls Rs
Sampling rate : 48.0 kHz
Frame rate : 31.250 FPS (1536 SPF)
Compression mode : Lossy
Stream size : 345 MiB (3%)
Title : MVO | HDRezka Studio
Language : Russian
Service kind : Complete Main
Default : Yes
Forced : No

Audio #2
ID : 3
Format : AC-3
Format/Info : Audio Coding 3
Commercial name : Dolby Digital
Codec ID : A_AC3
Duration : 1 h 47 min
Bit rate mode : Constant
Bit rate : 640 kb/s
Channel(s) : 6 channels
Channel layout : L R C LFE Ls Rs
Sampling rate : 48.0 kHz
Frame rate : 31.250 FPS (1536 SPF)
Compression mode : Lossy
Stream size : 493 MiB (4%)
Language : English
Service kind : Complete Main
Default : No
Forced : No

Text #1
ID : 4
Format : UTF-8
Codec ID : S_TEXT/UTF8
Codec ID/Info : UTF-8 Plain Text
Duration : 1 h 42 min
Bit rate : 5 b/s
Count of elements : 67
Stream size : 3.92 KiB (0%)
Title : Forced (HDRezka)
Language : Russian
Default : Yes
Forced : No

Text #2
ID : 5
Format : UTF-8
Codec ID : S_TEXT/UTF8
Codec ID/Info : UTF-8 Plain Text
Duration : 1 h 42 min
Bit rate : 75 b/s
Count of elements : 1085
Stream size : 57.1 KiB (0%)
Title : Full-Focs
Language : Russian
Default : No
Forced : No

Text #3
ID : 6
Format : UTF-8
Codec ID : S_TEXT/UTF8
Codec ID/Info : UTF-8 Plain Text
Duration : 1 h 45 min
Bit rate : 53 b/s
Count of elements : 1394
Stream size : 40.9 KiB (0%)
Title : SRT
Language : English
Default : No
Forced : No

Menu
00:00:00.000 : en:Chapter 01
00:05:04.346 : en:Chapter 02
00:10:45.103 : en:Chapter 03
00:15:00.108 : en:Chapter 04
00:22:01.570 : en:Chapter 05
00:26:41.975 : en:Chapter 06
00:29:57.629 : en:Chapter 07
00:35:22.162 : en:Chapter 08
00:44:45.474 : en:Chapter 09
00:51:35.426 : en:Chapter 10
00:58:16.118 : en:Chapter 11
01:04:35.538 : en:Chapter 12
01:11:40.588 : en:Chapter 13
01:17:06.372 : en:Chapter 14
01:22:14.763 : en:Chapter 15
01:31:40.078 : en:Chapter 16
01:38:30.613 : en:Chapter 17
01:43:17.358 : en:Chapter 18
Изображение Изображение Изображение Изображение Изображение Изображение Изображение Изображение Изображение Изображение

Как скачать!

  • Похожие темы
    Ответы
    Просмотры
    Последнее сообщение

Вернуться в «Фильмы HD»

Кто сейчас на конференции

Сейчас этот форум просматривают: нет зарегистрированных пользователей и 6 гостей